TOP10 Militar; fusiles de asalto [MP4](Documental) 1 link



Documental basado en los fusiles de asalto usados en las guerras, con sus descripciones, pros y contras y toda la história que había detrás de ellos.

NOTA PERSONAL: A pesar de la calidad, que es más o menos ”decente” es un documental que me a encantado, merece mucho la pena

Format : MPEG-4
Format profile : Base Media / Version 2
Codec ID : mp42
File size : 196 MiB
Duration : 45mn 14s
Overall bit rate mode : Variable
Overall bit rate : 607 Kbps
Video
ID : 1
Format : AVC
Format/Info : Advanced Video Codec
Format profile : Baseline@L2.1
Format settings, CABAC : No
Format settings, ReFrames : 1 frame
Codec ID : avc1
Codec ID/Info : Advanced Video Coding
Duration : 45mn 14s
Bit rate : 508 Kbps
Maximum bit rate : 1 837 Kbps
Width : 478 pixels
Height : 360 pixels
Display aspect ratio : 4:3
Frame rate mode : Constant
Frame rate : 25.000 fps
Color space : YUV
Chroma subsampling : 4:2:0
Bit depth : 8 bits
Scan type : Progressive
Bits/(Pixel*Frame) : 0.118
Stream size : 165 MiB (84%)
Audio
ID : 2
Format : AAC
Format/Info : Advanced Audio Codec
Format profile : LC
Codec ID : 40
Duration : 45mn 14s
Bit rate mode : Variable
Bit rate : 96.0 Kbps
Maximum bit rate : 102 Kbps
Channel count : 2 channels
Channel positions : Front: L R
Sampling rate : 44.1 KHz
Compression mode : Lossy
Stream size : 31.1 MiB (16%)


>EN ESPAÑOL | DE ESPAÑA<

Código:

http://link-safe.net/folder/a73270c7-a9e1

Código:

http://ul.to/0rgh0ul7





Related Posts Plugin for WordPress, Blogger...

Deja tu comentario