jackass 3.5 (2011) [DVDRip][Sub Español] 1 link



jackass 3.5 2011 [DVDRip][Sub Español] 1 link

jackass 3.5 | DVDRip | Sub Español | 700 MB
Porque demasiado nunca es suficiente! Johnny Knoxville y los chicos están otra vez con jackass 3.5, una recopilación de decenas de episodios con nuevas imágenes de los idiotas que ha llegado a temer y amar. Cargado con trucos nunca antes vistos, bromas y la estupidez, las babosas episódica son payasadas, tales como el encuentro de cerca y muy personal de Steve- O, con una tortuga, Chris Pontius y su pene de madera increíble, un viaje propulsado por cohetes a Urano con Bam Margera, y la broma éxito que fue retirado finalmente de Johnny Knoxville.
Agregado muestra de prueba de 5o MB correspondientes a los primeros 4 minutos de pelicula para que aprecies la calidad antes de bajarla.

Datos de la Pelicula
Director:
Jeff Tremaine
Actores:
Jason ‘Wee Man’ Acuña, Ryan Dunn and Dave England
Info. Codificacion
General
Nombre completo: Jackass.3.5.DVDRip.espa_by_almacervecera.avi
Formato: AVI
Formato / Info: Audio Video Interleave
Tamaño del archivo: 700 MB
Duración: 1h 21mn
Tasa de bits total: 1 203 Kbps
Aplicación de la escritura: VirtualDubMod 1.5.10.2 (build 2540/release )
Escribir la colección: VirtualDubMod construir 2540/release
Video
ID: 0
Formato: MPEG – 4 Visual
Formato del perfil: Advanced Simple @ L5
Ajustes del formato, BVOP: 2
La configuración del formato, Qpel: No
La configuración del formato, GMC: No warppoints
La configuración del formato, Matrix: Default ( H.263 )
Modo Muxing: flujo de bits de pic nic
ID Códec: XVID
ID Codec / Pista: XviD
Duración: 1h 21mn
Velocidad de bits: 995 Kbps
Ancho: 640 pixeles
Altura: 352 píxeles
Mostrar la relación de aspecto 16:9
Velocidad de cuadros: 25.000 fps
Espacio de color: YUV
Submuestreo Chroma: 4:2:0
La profundidad de bits: 8 bits
Tipo de exploración: Progresivo
El modo de compresión: con pérdida
Bits / ( Pixel * cuadro ): 0.177
Stream size: 579 MiB ( 83 % )
La colección de la escritura: XviD 62
Audio
ID: 1
Formato: MPEG Audio
Formato de la versión: Versión 1
Formato del perfil: Layer 3
Modo: Joint Stereo
Extensión modo: MS estéreo
ID Códec: 55
ID Codec / Pista: MP3
Duración: 1h 21mn
Poco el modo de cambio: variable
Velocidad de bits: 192 Kbps
Canal ( s ): 2 canales
Frecuencia de muestreo: 48,0 KHz
El modo de compresión: con pérdida
Stream size: 114 MiB ( 16 % )
Alineación: Alineados sobre interpola
Intercalar, duración: 24 ms ( 0,60 fotograma de vídeo )
Intercalar, precarga duración: 94 ms
Escribir la colección: LAME3.90.
Configuración de codificación: – mj – V 4 – q 2 – paso bajo de 19,6 – abr 192
CAPTURAS

 

Descargar un extracto de la pelicula para que veas la calidad
http://www.duckload.com/dl/XcBp2
O
http://bitshare.com/files/bo02wxz4/Jackass.3.5.DVDRip.espa_by_almacervecera.avi.html

Sin contraseña | Facil Extraction | 1 Link

 

http://www.fileserve.com/file/MNADCFU

 

http://bitshare.com/files/28r4z2rr/Jackass.3.5.dvdrip.espa_by_almacervecera.rar.html

 

http://www.filesonic.com/file/1127822721/Jackass.3.5.dvdrip.espa_by_almacervecera.rar

 

http://www.uploadstation.com/file/buaCXpj

 

http://www.wupload.com/file/8219201/Jackass.3.5.DVDRip.espa_by_almacervecera.rar








Related Posts Plugin for WordPress, Blogger...

Deja Tu comentario..

Loading Facebook Comments ...

Leave a Reply

Your email address will not be published. Required fields are marked *

You may use these HTML tags and attributes: <a href="" title=""> <abbr title=""> <acronym title=""> <b> <blockquote cite=""> <cite> <code> <del datetime=""> <em> <i> <q cite=""> <strike> <strong>