wau


19/04/2011 - Por

Blood Out 2011 [Dvdrip][Sub. Pegados][1Link]





Blood Out 2011 [Dvdrip][Sub. Pegados][1Link]

Blood Out 2011 [Dvdrip][Sub. Pegados][1Link]|Peso: 781MB
Estreno USA : 26/4/2011
Cuando los detectives de una gran ciudad se niegan a investigar más a fondo el asesinato de su hermano menor de pandillas, pequeño pueblo del Sheriff Michael Spencer deja caer la placa y de encubierto para descubrir al asesino de su hermano y vengar su muerte.


Descargar

Datos de la Pelicula
Título Original: Blood Out
Género: Acción
Temática: Detective de Policía | Venganza | Muerte
Productora: Films In Motion | Voodoo Production Services
Director: Jason Hewitt
Guión: Jason Hewitt | John A. O’Connell
Productor: Michael Arata
Música: Jermaine Stegall
Fotografía: Christian Herrera
País: Estados Unidos
Fecha de Estreno: 26 de Abril de 2011
Reparto Principal: Val Kilmer | Luke Goss | Vinnie Jones
Info codec Pelicula
General
Format : MPEG-PS
File size : 781 MiB
Duration : 1h 25mn
Overall bit rate : 1 285 Kbps
Writing library : encoded by TMPGEnc 4.0 XPress Version. 4.4.1.237
Video
ID : 224 (0xE0)
Format : MPEG Video
Format version : Version 1
Format settings, BVOP : Yes
Format settings, Matrix : Default
Duration : 1h 25mn
Bit rate mode : Constant
Bit rate : 1 140 Kbps
Width : 352 pixels
Height : 240 pixels
Display aspect ratio : 16:9
Frame rate : 29.970 fps
Standard : NTSC
Color space : YUV
Bit depth : 8 bits
Scan type : Progressive
Bits/(Pixel*Frame) : 0.450
Stream size : 688 MiB (88%)
Writing library : TMPGEnc XPress 4.4.1.237
Audio
ID : 192 (0xC0)
Format : MPEG Audio
Format version : Version 1
Format profile : Layer 2
Duration : 1h 25mn
Bit rate mode : Constant
Bit rate : 128 Kbps
Channel(s) : 2 channels
Sampling rate : 44.1 KHz
Stream size : 77.8 MiB (10%)

 

Sin contraseña | Facil Extraction | 1 Link

Fileserve

http://www.fileserve.com/file/fHMbYEm

bitshare

http://bitshare.com/files/160yzaap/BloodOut.Sub.DVDRip_by_Almacervecera.rar.html

filesonic

http://www.filesonic.com/file/762719744

duckload

http://www.duckload.com/dl/zhzf2



Related Posts Plugin for WordPress, Blogger...

Dejá tu comentario!

Loading Facebook Comments ...

Comenta! sobre Blood Out 2011 [Dvdrip][Sub. Pegados][1Link] ↓