Hunt To Kill (2010) [BDrip][Sub esp]



Una agente federal en busca de una joven extraviada, tendrá quq hacer frente a un grupo de maleantes que les harán la vida imposible. Como ven se trata de una cinta con mucha acción, disparos y entretenimiento sin fin. "Hunt to Kill" (Cazar para matar) se estrena el próximo 9 de noviembre. En el elenco tenemos a Steve Austin (el de la foto), Marie Avgeropoulos y Gil Bellows.

Titulo original: HUNT TO KILL
Año: 2010
Género: Accion
Duración: 0
Calidad de video: DVD RIP
Peso: 952 mb
Idioma: Ingles Subtitulado Español

Format : AVI
Format/Info : Audio Video Interleave
File size : 953 MiB
Duration : 1h 37mn
Overall bit rate : 1 371 Kbps
Writing application : MEncoder 2:1.0~rc2-0ubuntu13.1
Writing library : MPlayer
Video #0
ID : 0
Format : MPEG-4 Visual
Format profile : AdvancedSimple@L5
Format settings, BVOP : Yes
Format settings, QPel : No
Format settings, GMC : No warppoints
Format settings, Matrix : Default (H.263)
Codec ID : XVID
Codec ID/Hint : XviD
Duration : 1h 37mn
Bit rate : 1 231 Kbps
Width : 624 pixels
Height : 352 pixels
Display aspect ratio : 16:9
Frame rate : 23.976 fps
Resolution : 24 bits
Colorimetry : 4:2:0
Scan type : Progressive
Bits/(Pixel*Frame) : 0.234
Stream size : 855 MiB (90%)
Writing library : XviD 1.1.2 (UTC 2006-11-01)
Audio #1
ID : 1
Format : MPEG Audio
Format version : Version 1
Format profile : Layer 3
Codec ID : 55
Codec ID/Hint : MP3
Duration : 1h 37mn
Bit rate mode : Variable
Bit rate : 127 Kbps
Nominal bit rate : 128 Kbps
Channel(s) : 2 channels
Sampling rate : 48.0 KHz
Resolution : 16 bits
Stream size : 88.4 MiB (9%)
Alignment : Aligned on interleaves
Interleave, duration : 24 ms (0.58 video frame)
Interleave, preload duration : 144 ms
Writing library : LAME3.90.
Encoding settings : -m j -V 4 -q 2 -lowpass 17.6 –abr 128

link: http://www.youtube.com/watch?v=M7Vl3ryJfR0






LINKS RS-MU-MF DESCARGAR AQUI
Los links premium los pongo por separado por que me los borran
1 Link
http://www.fileserve.com/file/XYpNJQx

http://hotfile.com/dl/76028588/b27e307/H.To.Kil_by_JP.part1.rar.html 
http://hotfile.com/dl/76028575/f5c1c4c/H.To.Kil_by_JP.part2.rar.html
http://hotfile.com/dl/76028556/af5168d/H.To.Kil_by_JP.part3.rar.html
http://hotfile.com/dl/76028503/d77351f/H.To.Kil_by_JP.part4.rar.html
http://hotfile.com/dl/76028650/31b3dee/H.To.Kil_by_JP.part5.rar.html 
http://hotfile.com/dl/76028647/2049960/H.To.Kil_by_JP.part6.rar.html
http://hotfile.com/dl/76028592/f86c085/H.To.Kil_by_JP.part7.rar.html

jpzkit2






Related Posts Plugin for WordPress, Blogger...

One thought on “Hunt To Kill (2010) [BDrip][Sub esp]”

  1. Pingback: Bitacoras.com

Deja tu comentario